#TITLE:Believe in Heaven;
#SUBTITLE:- Matantei Loki Ragnarok Ending;
#ARTIST:Miki Shinichirou;
#TITLETRANSLIT:;
#SUBTITLETRANSLIT:- Detective Loki Ending;
#ARTISTTRANSLIT:;
#CREDIT:Mellow;
#BANNER:banner.png;
#BACKGROUND:background.jpg;
#LYRICSPATH:believe in heaven.lrc;
#CDTITLE:CREDIT.png;
#MUSIC:Believe in Heaven TV.mp3;
#OFFSET:0.900;
#SAMPLESTART:45.254;
#SAMPLELENGTH:11.980;
#SELECTABLE:YES;
#BPMS:0.000=130.000;
#STOPS:;
#BGCHANGES:2.000=outro video.avi=1.000=1=1=0,
195.500=outro background.jpg=1.000=0=0=0,
99999=-nosongbg-=1.000=0=0=0 // don't automatically add -songbackground-
;
// cache tags:
#FIRSTBEAT:3.000;
#LASTBEAT:196.500;
#SONGFILENAME:songs/Otaku's Dream 3rd Anime Mix/[errorrrr] Believe in Heaven - Matantei Loki Ragnarok ED/believe in heaven.sm;
#HASMUSIC:1;
#HASBANNER:1;
#MUSICLENGTH:91.193;
// end cache tags

//---------------dance-single - ----------------
#NOTES:
     dance-single:
     :
     Hard:
     6:
     0.583,0.539,0.658,0.647,0.132,253.000,60.000,59.000,0.000,0.000:
0000
0000
0000
0000
0000
0000
0000
0000
0000
0000
0000
0000
0001
0010
0100
1000
,
0020
0000
0000
0000
0000
0000
0000
0000
0000
0000
0030
0000
1000
0100
0010
0001
,
0200
0000
0000
0000
0000
0000
0000
0000
0000
0000
0300
0000
0001
0010
0100
1000
,
0020
0000
0000
0000
0000
0000
0000
0000
0000
0000
0030
0000
1000
0100
0010
0001
,
0200
0000
0000
0000
0000
0000
0000
0000
0000
0000
0300
0000
0001
0010
0100
1000
,
0020
0000
0000
0000
0100
0000
0000
0000
0100
0000
0030
0000
1000
0100
0010
0001
,
0200
0000
0000
0000
0010
0000
0000
0000
0010
0000
0300
0000
0001
0010
0100
1000
,
0020
0000
0000
0000
0100
0000
0000
0000
0100
0000
0030
0000
1000
0100
0010
0001
,
0200
0000
0010
0000
0010
0000
0010
0300
,
1001
0000
0101
2020
0000
3030
1010
0202
,
0000
0303
0010
0100
0000
1010
0000
0110
,
2002
0000
0000
0000
3003
0000
0110
2002
,
3003
0000
0110
1001
0010
0100
1000
0010
,
0200
0300
1000
0020
0030
0000
1001
0100
,
0010
1001
0000
0110
0000
1010
0000
0101
,
2020
0000
0000
0000
3030
0000
0101
2020
,
3030
0000
1010
0101
0000
0010
0100
2000
,
0010
3000
0010
0101
0000
1000
0010
0202
,
0303
0000
0010
0100
0000
0101
0000
1100
,
0022
0000
0030
0000
1000
0000
0003
0100
1000
0000
0100
0000
1010
0000
0000
0000
,
1010
0000
0000
0000
1100
0000
0000
0010
0100
0000
0001
0000
0010
0000
2000
0000
,
0010
3000
0100
0002
0100
0103
0110
1000
,
0010
0101
0000
1010
0000
0100
0001
0000
,
0200
0300
0010
2000
0000
3000
0100
0020
,
0000
0130
0000
1000
0000
0100
0010
0002
,
0000
0000
0103
1000
0000
0101
0000
0110
,
0000
1100
0000
0110
0000
0011
0000
2020
,
0000
3030
0100
0010
0000
0011
0000
0110
,
0000
1100
0000
0110
0000
0100
0010
0002
,
0000
0000
0013
0200
0300
1000
0100
0020
,
0100
0000
0000
0130
0000
1000
0100
0002
,
0100
0000
0100
0003
0010
0100
0000
2010
,
0000
0000
0010
3000
0100
0010
0000
0102
,
0000
0000
0100
0003
1000
0100
0000
0012
,
0000
0003
0100
1010
0000
0110
0000
0022
,
0000
0000
0000
0033
0100
2000
3000
0020
,
0001
0000
0001
0030
1000
0100
0000
0012
,
0100
0000
0100
0000
0103
0010
0101
0000
,
0101
0000
0100
0010
0000
1100
0100
0010
,
0102
0000
0100
0003
2100
0100
3100
0012
,
0000
0000
0100
0003
0100
1000
0000
0200
,
0000
0300
0010
0002
0000
0100
0100
0103
,
0100
0000
1010
0000
0100
0020
0030
2000
,
0010
3000
0000
0010
0100
0001
1000
0020
,
0000
0030
0000
0101
0000
0010
0100
1000
,
0002
0000
0000
0000
0010
0000
0010
0000
0000
0000
0003
0000
1000
0100
0010
0001
,
0200
0000
0000
0000
0010
0000
0000
0000
0010
0000
0310
0000
1000
0100
0010
0001
,
0200
0000
0000
0000
0001
0000
0000
0000
0001
0000
0301
0000
0001
0010
0100
1000
,
0020
0000
0100
0000
0100
0100
0130
0000
,
1100
0011
0000
0000
0000
0000
0000
0000
;

//---------------dance-single - Copied from----------------
#NOTES:
     dance-single:
     Copied from:
     Challenge:
     8:
     0.732,0.727,0.680,0.625,0.362,348.000,62.000,57.000,0.000,0.000:
0000
0000
0000
0000
0000
0000
0000
0000
0000
0000
0000
0000
0001
0010
0100
1000
,
0020
0000
0100
0000
0100
0000
0100
0100
0000
0000
0130
0000
1000
0100
0010
0001
,
0200
0000
0010
0000
0010
0000
0010
0010
0000
0000
0310
0000
0001
0010
0100
1000
,
0020
0000
0100
0000
0100
0000
0100
0100
0000
0000
0130
0000
1000
0100
0010
0001
,
0200
0000
0010
0000
0010
0000
0010
0010
0000
0000
0310
0000
0001
0010
0100
1000
,
0020
0100
0100
0000
0100
0000
0100
0100
0000
0100
0130
0000
1000
0100
0010
0001
,
0200
0010
0010
0000
0010
0000
0010
0010
0000
0010
0310
0000
0001
0010
0100
1000
,
0020
0100
0100
0000
0100
0000
0100
0100
0000
0100
0130
0000
1000
0100
0010
0001
,
0200
0010
0010
0000
0010
0000
0010
0010
0000
0010
0010
0000
0010
0000
0310
0000
,
1001
0000
0101
2020
0000
3030
1010
0202
,
0000
0303
0010
0100
0000
1010
0000
0110
,
2002
0000
0000
0000
3003
0000
0110
2002
,
3003
0000
0110
1001
0010
0100
1000
0010
,
0200
0300
1000
0020
0030
0000
1001
0100
,
0010
1001
0000
0110
0000
1010
0000
0101
,
2020
0000
0000
0000
3030
0000
0101
2020
,
3030
0000
1010
0101
0000
0010
0100
2000
,
0010
3000
0010
0101
0000
1000
0010
0202
,
0303
0000
0010
0100
0000
0101
0000
1100
,
0022
0000
0030
0000
1000
0000
0003
0100
1000
0000
0100
0000
1010
0000
0000
0000
,
1010
0000
0000
0000
1100
0000
0000
0010
0100
0000
0001
0000
0010
0000
2000
0000
,
0010
0000
3000
0000
0100
0000
0002
0000
0100
0100
0103
0000
0110
0000
1000
0000
,
0010
0000
0101
0000
0010
0000
1010
0000
0100
0010
0100
0000
1010
0000
0000
0000
,
0201
0000
0300
0000
0010
0000
2000
0000
0100
0000
3000
0000
0100
0000
0020
0100
,
0100
0000
0130
0000
0000
0000
1000
0100
0000
0000
0100
0000
0010
0000
0002
0100
,
0100
0000
0000
0000
0103
0000
1000
0010
0000
0000
0101
0000
0000
0000
0110
0000
,
0000
1100
0000
0110
0000
0011
0000
2100
,
0010
0000
3000
0000
0100
0000
0010
0001
0000
0000
0011
0000
0000
0000
0110
0000
,
0000
1100
0000
0110
0000
0100
0010
0002
,
0010
0010
0000
0000
0013
0000
0200
0000
0300
0000
1000
0000
0100
0000
0020
0000
,
0100
0000
0000
0130
0100
1010
0110
0002
,
0100
0000
0000
0000
0103
0000
0010
1000
0010
0000
0100
0000
0000
0000
2010
0000
,
0010
0000
0000
0000
0010
0000
3000
0000
0100
0001
0010
0000
0000
0000
0102
0000
,
0000
0000
0100
0003
1000
0100
0000
0012
,
0000
0000
0003
0000
0100
0000
1000
0100
0001
0000
0110
0000
0000
0000
0012
0000
,
0100
0000
0000
0000
0103
0000
0000
0010
0100
0000
2000
0000
3100
0000
0020
0000
,
0001
0000
0000
0000
0031
0000
0000
0001
0100
0000
0002
0000
0100
0000
0010
0000
,
0100
0000
0000
0000
0103
0000
0000
0010
0100
0000
0010
0000
0101
0000
0000
0000
,
0101
0000
0100
0011
0000
1100
0100
1010
,
0102
0000
0000
0000
0010
0000
0003
0100
2000
0000
0100
0000
3100
0000
0012
0000
,
0100
0000
0000
0000
0103
0000
0000
0010
0100
0000
1000
0000
0010
0000
0200
0000
,
0010
0000
0300
0000
0010
0000
0002
0100
0100
0000
0100
0000
0100
0000
0103
0000
,
0100
0000
0000
0000
1010
0000
0000
0001
0100
0000
0020
0000
0130
0000
2000
0000
,
0010
3000
0010
0010
0100
0001
1000
0020
,
0100
0000
0030
0000
0100
0000
0001
1000
0100
0000
0010
0000
0100
0000
1000
0000
,
0002
0000
0000
0000
0010
0000
0010
0010
0000
0000
0013
0000
1000
0100
0010
0001
,
0200
0010
0010
0000
0010
0000
0010
0010
0000
0000
0310
0000
1000
0100
0010
0001
,
0200
0001
0001
0000
0001
0000
0001
0001
0000
0000
0301
0000
0001
0010
0100
1000
,
0020
0100
0100
0000
0100
0000
0100
0100
0000
0000
0100
0000
0130
0000
0000
0000
,
1100
0011
0000
0000
0000
0000
0000
0000
;

//---------------dance-single - Copied from----------------
#NOTES:
     dance-single:
     Copied from:
     Medium:
     5:
     0.495,0.458,0.515,0.768,0.000,199.000,47.000,70.000,0.000,0.000:
0000
0000
0000
0002
,
0023
0000
0000
0000
0000
0030
2000
0000
,
3200
0000
0000
0000
0000
0300
0002
0000
,
0023
0000
0000
0000
0000
0030
2000
0000
,
3200
0000
0000
0000
0000
0300
0002
0000
,
0023
0000
0100
0000
0100
0030
2000
0000
,
3200
0000
0010
0000
0010
0300
0002
0000
,
0023
0000
0100
0000
0100
0030
2000
0000
,
3200
0000
0010
0000
0010
0000
0010
0300
,
1001
0000
0101
2020
0000
3030
1010
0202
,
0000
0303
0010
0100
0000
1010
0000
0110
,
2002
0000
0000
0000
3003
0000
0100
2002
,
3003
0000
0100
1000
0010
0100
1000
0010
,
0200
0300
1000
0020
0030
0000
1001
0100
,
0010
1001
0000
0110
0000
1010
0000
0101
,
2000
0000
0000
0000
3000
0000
0100
2020
,
3030
0000
1000
0101
0000
0010
0100
2000
,
0010
3000
0010
0101
0000
1000
0010
0202
,
0303
0000
0010
0100
0000
0101
0000
0100
,
0022
0030
1000
0003
1000
0000
1010
0000
,
1010
0000
1100
0000
0100
0000
0010
2000
,
0010
3000
0100
0002
0100
0003
0100
1000
,
0010
0101
0000
1010
0000
0100
0001
0000
,
0200
0300
0010
2000
0000
3000
0100
0020
,
0000
0130
0000
1000
0000
0100
0010
0002
,
0000
0000
0103
1000
0000
0101
0000
0110
,
0000
1100
0000
0110
0000
0011
0000
2020
,
0000
3030
0100
0010
0000
0011
0000
0110
,
0000
1100
0000
0110
0000
0100
0010
0002
,
0000
0000
0013
0200
0300
1000
0100
0020
,
0100
0000
0000
0130
0000
1000
0100
0002
,
0100
0000
0100
0003
0010
0100
0000
2010
,
0000
0000
0010
3000
0100
0010
0000
0102
,
0000
0000
0100
0003
1000
0100
0000
0012
,
0000
0003
0100
1000
0000
0110
0000
0022
,
0000
0000
0000
0033
0100
2000
3000
0020
,
0000
0000
0000
0030
1000
0100
0000
0022
,
0000
0000
0033
0101
,
0101
0000
0100
0010
0000
1000
0100
0010
,
0002
0000
0100
0003
2000
0000
3100
0020
,
0000
0000
0100
0030
0100
1000
0000
0200
,
0000
0300
0010
0002
0003
0100
0010
1000
,
0100
0000
1010
0000
0100
0020
0030
2000
,
0010
3000
0000
0010
0100
0001
1000
0020
,
0100
0030
0000
0101
0000
0010
0100
1000
,
0002
0000
0010
0010
0000
0003
2000
0000
,
3200
0000
0000
0000
0000
0300
0020
0000
,
0230
0000
0000
0000
0000
0300
2000
0000
,
3020
0000
0000
0030
,
1100
0011
0000
0000
0000
0000
0000
0000
;

//---------------dance-single - Copied from Copied f----------------
#NOTES:
     dance-single:
     Copied from Copied f:
     Easy:
     3:
     0.432,0.404,0.274,0.493,0.000,206.000,25.000,45.000,0.000,0.000:
0000
0000
0000
0101
,
1010
0100
0100
1010
,
0101
0100
0100
0011
,
0110
0010
0010
1100
,
0110
0100
0100
0011
,
0110
1000
0001
1010
,
0101
0010
0010
0101
,
1010
0100
0100
1010
,
0101
0010
0010
0010
,
1000
0000
0001
2000
0000
3000
1000
0002
,
0000
0003
0010
0100
0000
1000
0000
0100
,
0002
0000
0000
0000
0003
0000
0100
2000
,
3000
0000
0100
1000
0010
0100
1000
0010
,
0200
0300
1000
0020
0030
0000
1001
0100
,
0010
1001
0000
0010
0000
1000
0000
0100
,
2000
0000
0000
0000
3000
0000
0100
2000
,
3000
0000
1000
0001
0000
0010
0100
2000
,
0010
3000
0010
0100
0000
1000
0010
0200
,
0300
0000
0010
0100
0000
0001
0000
0100
,
0002
0000
1000
0003
1000
0000
0010
0000
,
0010
0000
1000
0000
0100
0001
0010
1000
,
0010
0000
0100
0002
0000
0003
0100
1000
,
0010
0100
0000
1000
0000
0100
0001
0000
,
0200
0300
0010
2000
0000
3000
0100
0020
,
0000
0130
0000
1000
0000
0100
0010
0002
,
0000
0000
0103
1000
0000
0100
0000
0010
,
0000
0001
0000
0010
0000
0100
0000
2020
,
0000
3030
0100
0010
0000
0001
0000
0010
,
0000
0100
0000
1000
0000
0100
0010
0002
,
0000
0003
0010
0200
0300
1000
0100
0020
,
0100
0000
0000
0130
0000
1000
0100
0002
,
0100
0000
0100
0003
0010
0100
0000
2000
,
0000
0000
0010
3000
0100
0010
0000
0102
,
0000
0000
0100
0003
1000
0100
0000
0002
,
0000
0003
0100
1000
0000
0100
0000
0002
,
0000
0000
0000
0003
0100
2000
3000
0020
,
0000
0000
0000
0030
1000
0100
0000
0020
,
0000
0000
0030
0101
,
0101
0000
0100
0010
0000
1000
0100
0010
,
0002
0000
0100
0003
2000
0000
3100
0020
,
0000
0000
0100
0030
0100
1000
0000
0200
,
0000
0300
0010
0002
0003
0100
0010
1000
,
0100
0000
1010
0000
0100
0020
0030
2000
,
0010
3000
0000
0010
0100
0001
1000
0020
,
0000
0030
0000
0002
0003
0010
0100
1000
,
0002
0000
0010
0010
0000
0003
2000
0000
,
3200
0000
0000
0000
0000
0300
0020
0000
,
0230
0000
0000
0000
0000
0300
2000
0000
,
3020
0000
0000
0030
,
1100
0011
0000
0000
0000
0000
0000
0000
;
